<?xml version="1.0" standalone="no"?>
<!DOCTYPE svg PUBLIC "-//W3C//DTD SVG 1.1//EN" "http://www.w3.org/Graphics/SVG/1.1/DTD/svg11.dtd">
<svg xmlns="http://www.w3.org/2000/svg">
<defs >
<font id="LexendDeca" horiz-adv-x="586" ><font-face
    font-family="Lexend Deca"
    units-per-em="1000"
    panose-1="0 0 0 0 0 0 0 0 0 0"
    ascent="1000"
    descent="-250"
    alphabetic="0" />
<glyph unicode=" " glyph-name="space" horiz-adv-x="280" />
<glyph unicode="!" glyph-name="exclam" horiz-adv-x="236" d="M87 241Q81 296 76 361T67 496T63 630V700H171V630Q171 565 168 496T160 362T147 241H87ZM114 -11Q79 -11 62 9T45 64Q45 93 62 116T114 139Q149 139 166 119T183 64Q183 36 166 13T114 -11Z" />
<glyph unicode="&quot;" glyph-name="quotedbl" horiz-adv-x="412" d="M60 700H178L97 442H37L60 700ZM269 700H385L305 442H245L269 700Z" />
<glyph unicode="#" glyph-name="numbersign" horiz-adv-x="678" d="M101 0L131 173H31V256H145L179 453H69V536H193L221 700H311L283 536H459L487 700H577L549 536H647V453H535L501 256H610V173H487L457 0H367L397 173H221L191 0H101ZM235 256H411L445 453H269L235 256Z" />
<glyph unicode="$" glyph-name="dollar" horiz-adv-x="624" d="M124 211Q154 168 184 140T254 98V312Q175 335 130 383T85 514Q85 569 113 610T189 677T294 708V782H391V704Q507 683 563 587L487 512Q469 542 445 564T391 600V391Q439 376 479 351T544 291T569
208Q569 116 511 59T351 -8V-91H254V-5Q193 4 142 36T50 126L124 211ZM193 517Q193 475 220 452T294 415V611Q250 605 222 581T193 517ZM461 180Q461 220 433 246T351 288V89Q395 94 428 117T461 180Z" />
<glyph unicode="%" glyph-name="percent" horiz-adv-x="839" d="M193 329Q146 329 112 354T59 423T40 518Q40 571 58 614T112 683T194 709Q241 709 275 684T328 615T347 518Q347 466 328 423T274 355T193 329ZM129 0L350 335L592 700H695L432 307L227 0H129ZM194
404Q229 404 246 436T263 518Q263 568 246 600T193 633Q159 633 141 600T123 518Q123 469 141 437T194 404ZM636 -9Q591 -9 556 16T502 85T482 180Q482 233 500 276T554 345T636 371Q683 371 717 346T770 277T789 180Q789 128 770 85T716 17T636 -9ZM636 65Q671
65 688 98T706 180Q706 230 688 262T636 295Q601 295 583 262T565 180Q565 131 583 98T636 65Z" />
<glyph unicode="&amp;" glyph-name="ampersand" horiz-adv-x="739" d="M306 -10Q231 -10 174 22T83 104T50 212Q50 282 86 338T201 430Q185 455 177 480T168 532Q168 580 193 620T264 685T375 710Q445 710 497 673T568 579L490 529Q471 576 443 596T375 617Q323
617 302 594T280 535Q280 504 300 469T347 401T398 343L516 211Q530 239 539 269T554 329H646Q639 280 623 232T579 141Q621 96 655 58T709 0H575Q559 17 544 33T514 64Q474 30 423 10T306 -10ZM159 227Q159 192 176 159T230 106T326 85Q365 85 396 97T454 131L295
308Q285 320 275 331T256 353Q201 335 180 302T159 227Z" />
<glyph unicode="&apos;" glyph-name="quotesingle" horiz-adv-x="205" d="M60 700H178L97 442H37L60 700Z" />
<glyph unicode="(" glyph-name="parenleft" horiz-adv-x="366" d="M40 258Q40 391 102 507T291 702L346 640Q238 564 188 465T137 258Q137 151 187 52T346 -124L290 -186Q163 -106 102 9T40 258Z" />
<glyph unicode=")" glyph-name="parenright" horiz-adv-x="363" d="M324 258Q324 125 262 9T73 -186L18 -124Q126 -48 176 51T227 258Q227 365 177 464T18 640L74 702Q201 622 262 507T324 258Z" />
<glyph unicode="*" glyph-name="asterisk" horiz-adv-x="387" d="M159 376L167 487L69 421L32 486L138 537L30 589L68 653L167 586L159 700H234L226 587L320 651L357 586L255 536L356 487L319 423L226 485L234 376H159Z" />
<glyph unicode="+" glyph-name="plus" horiz-adv-x="591" d="M45 235V325H242V525H347V325H546V235H347V42H242V235H45Z" />
<glyph unicode="," glyph-name="comma" horiz-adv-x="267" d="M221 4Q221 -38 202 -75T153 -139T88 -179L50 -133Q85 -113 107 -87T129 -42Q129 -27 120 -16T100 6T80 30T71 64Q71 89 89 103T132 117Q166 117 193 88T221 4Z" />
<glyph unicode="-" glyph-name="hyphen" horiz-adv-x="394" d="M53 235V337H341V235H53Z" />
<glyph unicode="." glyph-name="period" horiz-adv-x="228" d="M114 -11Q79 -11 62 9T45 64Q45 93 62 116T114 139Q149 139 166 119T183 64Q183 36 166 13T114 -11Z" />
<glyph unicode="/" glyph-name="slash" horiz-adv-x="557" d="M18 -132L430 700H529L118 -132H18Z" />
<glyph unicode="0" glyph-name="zero" horiz-adv-x="607" d="M303 -10Q219 -10 162 36T75 164T46 350Q46 455 75 536T161 663T303 710Q388 710 445 664T531 536T561 350Q561 245 532 164T445 37T303 -10ZM303 88Q375 88 415 156T456 350Q456 476 416 544T303 612Q231
612 191 544T150 350Q150 224 190 156T303 88Z" />
<glyph unicode="1" glyph-name="one" horiz-adv-x="500" d="M440 0H106V104H217V569L116 516L87 610L274 710H326V104H440V0Z" />
<glyph unicode="2" glyph-name="two" horiz-adv-x="548" d="M516 104V0H93L60 82L274 323Q315 369 349 415T383 509Q383 559 354 584T278 610Q255 610 227 596T174 552T134 473L51 525Q78 618 144 664T291 710Q348 710 394 687T467 620T494 517Q494 448 453 381T351
247L220 104H516Z" />
<glyph unicode="3" glyph-name="three" horiz-adv-x="529" d="M104 191Q119 169 140 144T191 102T259 85Q289 85 319 100T369 146T390 221Q390 266 374 293T330 332T271 344Q240 344 209 335T150 314L120 393L308 600H59V700H460L480 660L284 443Q342 443 389
415T465 337T494 227Q494 155 460 102T370 19T251 -10Q192 -10 150 9T76 63T20 138L104 191Z" />
<glyph unicode="4" glyph-name="four" horiz-adv-x="620" d="M352 0V190H76L30 280L373 700H456V289H578V190H456V0H352ZM157 289H352V527L157 289Z" />
<glyph unicode="5" glyph-name="five" horiz-adv-x="568" d="M257 -7Q181 -7 127 28T39 115L99 182Q135 142 170 117T257 92Q299 92 332 110T384 160T403 228Q403 269 385 300T335 350T265 368Q214 368 180 352T125 326L68 403L109 700H487V600H195L172 445Q195
455 225 461T284 468Q345 468 395 440T477 361T508 238Q508 168 475 113T385 25T257 -7Z" />
<glyph unicode="6" glyph-name="six" horiz-adv-x="557" d="M283 0Q216 0 161 31T73 118T40 247Q40 292 58 346T103 455T159 558L250 712H355L359 702L249 517Q235 494 223 471Q241 480 262 484T308 489Q367 489 415 457T493 373T522 260Q522 189 493 130T411
36T283 0ZM283 100Q319 100 350 117T399 168T418 247Q418 282 401 314T355 368T285 389Q241 389 210 369T161 317T144 248Q144 209 160 176T208 121T283 100Z" />
<glyph unicode="7" glyph-name="seven" horiz-adv-x="542" d="M112 0L387 600H60V700H493L507 631L228 0H112Z" />
<glyph unicode="8" glyph-name="eight" horiz-adv-x="579" d="M526 200Q526 144 495 98T410 25T289 -3Q223 -3 170 24T85 98T53 200Q53 266 86 307T163 372Q126 390 98 424T70 509Q70 561 99 604T178 674T289 700Q351 700 400 674T479 605T508 509Q508 472 494
446T457 401T412 372Q463 345 494 299T526 200ZM177 506Q177 466 210 440T289 414Q336 414 368 440T401 506Q401 545 370 572T289 600Q240 600 209 573T177 506ZM289 97Q345 97 382 128T419 204Q419 255 381 286T289 318Q236 318 198 287T160 204Q160 159 197 128T289
97Z" />
<glyph unicode="9" glyph-name="nine" horiz-adv-x="551" d="M274 712Q340 712 395 681T483 597T516 478Q516 414 486 336T417 174L334 0H228L224 10L350 277Q326 261 299 252T241 243Q184 243 136 273T59 353T30 462Q30 535 62 591T150 680T274 712ZM266 612Q216
612 179 576T141 475Q141 443 156 413T200 363T264 343Q307 343 337 361T383 410T400 474Q400 511 384 542T338 592T266 612Z" />
<glyph unicode=":" glyph-name="colon" horiz-adv-x="268" d="M134 385Q99 385 82 405T65 460Q65 489 82 512T134 535Q169 535 186 515T203 460Q203 432 186 409T134 385ZM134 -11Q99 -11 82 9T65 64Q65 93 82 116T134 139Q169 139 186 119T203 64Q203 36 186
13T134 -11Z" />
<glyph unicode=";" glyph-name="semicolon" horiz-adv-x="257" d="M130 385Q95 385 78 405T61 460Q61 489 78 512T130 535Q165 535 182 515T199 460Q199 432 182 409T130 385ZM214 4Q214 -38 195 -75T146 -139T81 -179L43 -133Q78 -113 100 -87T122 -42Q122 -27
113 -16T93 6T73 30T64 64Q64 89 82 103T125 117Q159 117 186 88T214 4Z" />
<glyph unicode="&lt;" glyph-name="less" horiz-adv-x="524" d="M457 79L409 4L48 211V292L409 499L457 424L156 252L457 79Z" />
<glyph unicode="=" glyph-name="equal" horiz-adv-x="566" d="M50 331V421H516V331H50ZM50 142V231H516V142H50Z" />
<glyph unicode="&gt;" glyph-name="greater" horiz-adv-x="527" d="M470 211L109 4L61 79L362 252L61 424L109 499L470 292V211Z" />
<glyph unicode="?" glyph-name="question" horiz-adv-x="511" d="M167 352Q260 377 309 415T358 511Q358 555 324 583T239 612Q197 612 160 584T97 507L22 570Q63 634 122 671T249 709Q311 709 361 684T441 613T471 511Q471 462 445 421T377 349T287 301L270 211H193L167
352ZM227 -11Q192 -11 175 9T158 64Q158 93 175 116T227 139Q262 139 279 119T296 64Q296 36 279 13T227 -11Z" />
<glyph unicode="@" glyph-name="at" horiz-adv-x="965" d="M669 55Q618 55 585 81T551 149Q522 97 482 76T400 55Q361 55 327 76T273 138T252 237Q252 278 267 325T313 414T388 483T491 510Q528 510 555 489T596 430L607 501H708L658 201Q657 197 657 194T657
186Q657 161 670 149T700 137Q732 137 758 158T803 216T832 298T842 391Q842 501 771 565T572 630Q441 630 340 582T182 441T124 209Q124 153 139 101T189 7T279 -58T417 -82Q472 -82 508 -74T573 -52T632 -22L669 -89Q632 -108 595 -124T514 -151T414 -162Q313
-162 242 -131T127 -46T61 72T40 206Q40 323 81 416T196 575T367 675T576 710Q690 710 768 668T885 554T925 396Q925 335 907 275T856 165T775 85T669 55ZM423 140Q460 140 491 163T543 221T568 286Q577 319 577 342Q577 386 553 405T495 425Q462 425 436 407T392
359T364 296T354 232Q354 187 373 164T423 140Z" />
<glyph unicode="A" glyph-name="A" horiz-adv-x="700" d="M560 0L494 174H201L135 0H25L296 700H406L675 0H560ZM294 418L241 278H455L400 422Q387 457 374 497T348 579Q334 537 321 495T294 418Z" />
<glyph unicode="B" glyph-name="B" horiz-adv-x="681" d="M390 700Q492 700 544 655T596 524Q596 477 574 440T507 382Q540 371 568 349T615 291T633 206Q633 145 612 105T557 42T482 10T400 0H98V700H390ZM372 596H206V410H384Q425 411 456 435T488 503Q488 553
455 574T372 596ZM389 306H206V104H394Q451 104 487 129T523 208Q523 246 502 267T451 297T389 306Z" />
<glyph unicode="C" glyph-name="C" horiz-adv-x="679" d="M630 86Q609 62 572 40T486 4T382 -10Q288 -10 213 34T93 160T48 350Q48 427 75 492T150 605T260 679T391 706Q448 706 497 689T584 644T643 585L571 510Q534 548 489 573T391 598Q331 598 278 568T191
483T158 350Q158 266 191 210T280 127T400 99Q459 99 504 122T576 174L630 86Z" />
<glyph unicode="D" glyph-name="D" horiz-adv-x="748" d="M372 700Q453 700 514 673T617 597T679 485T700 350Q700 254 663 175T553 48T372 0H98V700H372ZM367 104Q446 104 495 137T567 227T590 350Q590 416 567 472T495 562T367 596H206V104H367Z" />
<glyph unicode="E" glyph-name="E" horiz-adv-x="614" d="M98 700H539V596H206V411H484V307H206V104H539V0H98V700Z" />
<glyph unicode="F" glyph-name="F" horiz-adv-x="602" d="M98 0V700H552V596H206V402H507V298H206V0H98Z" />
<glyph unicode="G" glyph-name="G" horiz-adv-x="766" d="M410 706Q470 706 521 689T611 645T672 587L602 514Q562 552 514 576T410 601Q339 601 282 568T191 479T158 350Q158 279 193 221T286 129T414 95Q464 95 508 114T579 168T607 246Q607 251 607 252H408V359H718Q720
344 721 329T723 299Q723 244 707 191T655 99Q615 49 552 20T411 -10Q335 -10 269 17T153 94T76 208T48 350Q48 426 75 490T152 603T268 679T410 706Z" />
<glyph unicode="H" glyph-name="H" horiz-adv-x="761" d="M206 700V401H555V700H663V0H555V297H206V0H98V700H206Z" />
<glyph unicode="I" glyph-name="I" horiz-adv-x="478" d="M406 0H72V100H185V600H72V700H406V600H293V100H406V0Z" />
<glyph unicode="J" glyph-name="J" horiz-adv-x="642" d="M256 -10Q208 -10 172 5T111 42T71 84T50 117L118 188Q135 165 153 144T195 109T256 95Q312 95 344 132T376 223V600H248V700H592V600H484V213Q484 156 458 105T380 22T256 -10Z" />
<glyph unicode="K" glyph-name="K" horiz-adv-x="732" d="M206 0H98V700H206V357L549 700H691L389 407L697 0H562L313 333L206 229V0Z" />
<glyph unicode="L" glyph-name="L" horiz-adv-x="599" d="M534 104V0H98V700H206V104H534Z" />
<glyph unicode="M" glyph-name="M" horiz-adv-x="864" d="M204 700L433 327L666 700H766V0H658V287Q658 350 660 406T669 519L463 201H397L196 518Q202 462 204 406T206 287V0H98V700H204Z" />
<glyph unicode="N" glyph-name="N" horiz-adv-x="793" d="M587 700H695V0H596L189 534Q195 473 200 413T206 291V0H98V700H195L602 155Q593 228 590 312T587 470V700Z" />
<glyph unicode="O" glyph-name="O" horiz-adv-x="782" d="M734 350Q734 274 709 209T638 94T529 18T391 -10Q316 -10 253 17T144 94T73 208T48 350Q48 426 73 491T144 606T253 682T391 710Q466 710 528 683T637 606T709 492T734 350ZM624 350Q624 423 594 480T512
571T391 605Q322 605 270 572T188 481T158 350Q158 277 187 220T269 129T391 95Q459 95 511 128T594 220T624 350Z" />
<glyph unicode="P" glyph-name="P" horiz-adv-x="634" d="M383 700Q439 700 486 672T561 595T589 485Q589 425 561 376T486 297T383 268H206V0H98V700H383ZM381 372Q408 372 430 387T465 428T479 485Q479 532 450 564T381 596H206V372H381Z" />
<glyph unicode="Q" glyph-name="Q" horiz-adv-x="782" d="M699 -48L613 -110L519 13Q459 -10 391 -10Q316 -10 253 17T144 94T73 208T48 350Q48 426 73 491T144 606T253 682T391 710Q466 710 528 683T637 606T709 492T734 350Q734 263 701 190T610 68L699 -48ZM624
350Q624 423 594 480T512 571T391 605Q322 605 270 572T188 481T158 350Q158 277 187 220T269 129T391 95Q422 95 451 103L348 237Q348 237 361 246T392 266T423 287T437 296L545 154Q582 189 603 239T624 350Z" />
<glyph unicode="R" glyph-name="R" horiz-adv-x="695" d="M617 477Q617 414 580 360T482 280L645 -1L514 0L366 263H206V0H98V700H396Q451 700 501 673T584 596T617 477ZM378 596H206V367H406Q454 367 480 401T507 478Q507 533 469 564T378 596Z" />
<glyph unicode="S" glyph-name="S" horiz-adv-x="624" d="M124 211Q165 152 209 120T325 87Q359 87 390 98T441 130T461 180Q461 230 419 258T299 301Q201 321 143 370T85 514Q85 574 118 618T207 686T326 710Q409 710 469 678T563 587L487 512Q460 557 419 585T323
613Q268 613 231 588T193 517Q193 466 232 443T337 405Q396 393 449 368T535 304T569 208Q569 108 501 49T314 -10Q233 -10 167 22T50 126L124 211Z" />
<glyph unicode="T" glyph-name="T" horiz-adv-x="576" d="M231 0V596H35V700H541V596H339V0H231Z" />
<glyph unicode="U" glyph-name="U" horiz-adv-x="740" d="M652 701V269Q652 190 616 128T516 30T370 -6Q289 -6 225 29T125 127T88 269V701H196V278Q196 226 220 185T285 121T370 98Q418 98 459 121T524 185T549 278V701H652Z" />
<glyph unicode="V" glyph-name="V" horiz-adv-x="715" d="M691 700L409 0H304L24 700H147L314 275Q327 241 339 208T363 141Q374 175 386 208T410 275L565 700H691Z" />
<glyph unicode="W" glyph-name="W" horiz-adv-x="996" d="M972 700L749 0H674L494 425L320 0H247L24 700H139L274 262Q281 238 286 216T296 174Q301 194 308 216T325 263L451 579H548L670 263Q681 236 688 215T700 175Q703 193 708 215T723 265L856 700H972Z" />
<glyph unicode="X" glyph-name="X" horiz-adv-x="685" d="M24 0L275 358L29 700H166L349 433L524 700H651L409 347L661 0H524L337 271L151 0H24Z" />
<glyph unicode="Y" glyph-name="Y" horiz-adv-x="660" d="M650 700L394 312V0H286V310L10 700H140L342 410L526 700H650Z" />
<glyph unicode="Z" glyph-name="Z" horiz-adv-x="659" d="M593 700V622L209 104H604V0H60V79L446 596H86V700H593Z" />
<glyph unicode="[" glyph-name="bracketleft" horiz-adv-x="403" d="M80 -190V700H337V621H173V-111H337V-190H80Z" />
<glyph unicode="\" glyph-name="backslash" horiz-adv-x="557" d="M446 -107L48 700H147L547 -107H446Z" />
<glyph unicode="]" glyph-name="bracketright" horiz-adv-x="403" d="M323 700V-190H66V-111H230V621H66V700H323Z" />
<glyph unicode="^" glyph-name="asciicircum" horiz-adv-x="579" d="M29 368L240 727H340L551 368H436L290 618L142 368H29Z" />
<glyph unicode="_" glyph-name="underscore" horiz-adv-x="690" d="M53 -160V-82H637V-160H53Z" />
<glyph unicode="`" glyph-name="grave" horiz-adv-x="246" d="M180 573L6 667L71 749L214 624L180 573Z" />
<glyph unicode="a" glyph-name="a" horiz-adv-x="633" d="M561 525V0H457V81Q433 48 386 19T277 -10Q211 -10 157 25T70 122T38 264Q38 344 71 405T162 501T294 536Q349 536 390 512T457 456V525H561ZM301 85Q349 85 385 108T441 172T461 264Q461 314 441 354T385
417T301 441Q255 441 219 418T163 355T143 264Q143 213 163 173T219 109T301 85Z" />
<glyph unicode="b" glyph-name="b" horiz-adv-x="630" d="M345 536Q415 536 470 502T558 406T590 264Q590 184 558 122T471 25T348 -10Q292 -10 247 14T175 70V3H72V740H175V449Q198 482 244 509T345 536ZM331 442Q284 442 248 419T191 356T170 264Q170 213 190
173T247 108T331 84Q378 84 414 108T470 172T491 264Q491 315 471 355T414 419T331 442Z" />
<glyph unicode="c" glyph-name="c" horiz-adv-x="535" d="M138 263Q138 211 161 171T223 107T306 83Q356 83 393 109T453 163L510 93Q491 66 458 43T383 5T295 -10Q223 -10 165 26T74 124T40 263Q40 341 73 402T165 500T295 536Q368 536 425 507T510 430L453 360Q430
394 388 418T305 443Q258 443 220 420T160 356T138 263Z" />
<glyph unicode="d" glyph-name="d" horiz-adv-x="634" d="M564 740V0H461V74Q438 43 393 17T291 -10Q220 -10 163 25T73 122T40 263Q40 343 73 404T162 501T288 536Q344 536 389 513T461 459V740H564ZM305 79Q353 79 389 103T445 169T465 263Q465 316 445 357T389
423T305 447Q258 447 222 423T166 358T145 263Q145 211 165 169T222 103T305 79Z" />
<glyph unicode="e" glyph-name="e" d="M523 69H522Q490 38 434 14T317 -10Q235 -10 173 24T75 119T40 257Q40 345 77 407T175 503T308 537Q374 537 428 505T514 415T546 282L545 238H143Q152 167 201 126T327 84Q382 84 416 104T472 144L523 69ZM308 442Q249 442
205 415T147 320H441V327Q438 361 419 387T370 427T308 442Z" />
<glyph unicode="f" glyph-name="f" horiz-adv-x="393" d="M357 421H233V0H129V421H45V516H129V584Q129 652 172 695T285 739Q325 739 351 724T390 695L355 616Q345 626 329 634T297 643Q261 643 247 626T233 584V516H357V421Z" />
<glyph unicode="g" glyph-name="g" horiz-adv-x="649" d="M144 -87Q174 -110 219 -124T307 -138Q388 -138 431 -99T474 20V84Q460 60 434 39T373 4T300 -10Q227 -10 168 25T75 122T40 263Q40 343 74 404T166 501T297 536Q357 536 403 510T474 452V525H577V32Q577
-62 540 -119T441 -203T307 -230Q251 -230 196 -213T106 -167L144 -87ZM311 442Q263 442 226 419T167 355T145 263Q145 212 166 172T225 109T311 85Q361 85 398 108T457 171T478 263Q478 315 457 355T399 418T311 442Z" />
<glyph unicode="h" glyph-name="h" horiz-adv-x="595" d="M347 536Q418 536 457 507T511 429T527 320V0H424V313Q424 351 414 381T380 428T313 442Q273 442 242 425T193 380T175 318V0H72V740H175V442Q199 479 245 507T347 536Z" />
<glyph unicode="i" glyph-name="i" horiz-adv-x="278" d="M141 639Q106 639 89 657T72 704Q72 729 89 749T141 769Q176 769 193 751T210 704Q210 679 193 659T141 639ZM194 0H91V525H194V0Z" />
<glyph unicode="j" glyph-name="j" horiz-adv-x="263" d="M188 -24Q188 -77 165 -116T100 -176T8 -197L-31 -118Q30 -118 57 -86T85 1V525H188V-24ZM139 645Q104 645 87 663T70 710Q70 735 87 755T139 775Q174 775 191 757T208 710Q208 685 191 665T139 645Z" />
<glyph unicode="k" glyph-name="k" horiz-adv-x="568" d="M72 0V740H175V290L412 525H551L305 294L558 0H426L232 226L175 172V0H72Z" />
<glyph unicode="l" glyph-name="l" horiz-adv-x="250" d="M72 0V740H175V0H72Z" />
<glyph unicode="m" glyph-name="m" horiz-adv-x="921" d="M339 534Q404 534 443 505T499 424Q513 449 540 474T603 517T680 534Q748 534 786 505T839 426T855 315V0H751V309Q751 367 729 403T646 439Q588 439 551 403T513 314V0H409V311Q409 367 385 403T306 439Q268
439 238 422T191 378T174 316V0H70V525H174V441Q198 477 241 505T339 534Z" />
<glyph unicode="n" glyph-name="n" horiz-adv-x="595" d="M347 536Q418 536 457 507T511 429T527 320V0H424V313Q424 351 414 381T380 428T313 442Q273 442 242 425T193 380T175 318V0H72V525H175V442Q199 479 245 507T347 536Z" />
<glyph unicode="o" glyph-name="o" horiz-adv-x="615" d="M575 263Q575 183 540 122T444 25T308 -10Q233 -10 172 25T76 121T40 263Q40 343 75 404T172 501T308 536Q383 536 443 501T539 405T575 263ZM470 263Q471 316 450 356T391 419T308 442Q262 442 225 420T166
357T145 263Q144 211 165 171T224 107T308 84Q354 84 391 107T449 170T470 263Z" />
<glyph unicode="p" glyph-name="p" horiz-adv-x="631" d="M346 534Q416 534 471 500T559 404T591 263Q591 184 559 123T472 26T349 -9Q293 -9 248 15T176 70V-220H72V526H176V449Q199 482 245 508T346 534ZM332 439Q285 439 249 416T192 354T171 263Q171 213 191
173T248 110T332 86Q379 86 415 109T471 173T492 263Q492 314 472 353T415 416T332 439Z" />
<glyph unicode="q" glyph-name="q" horiz-adv-x="630" d="M558 526V-220H455V74Q432 42 388 16T288 -10Q218 -10 162 25T73 122T40 263Q40 343 72 404T160 501T285 536Q340 536 384 514T455 460V526H558ZM299 85Q347 85 383 108T439 172T459 263Q459 314 439 354T383
418T299 442Q252 442 216 419T160 355T139 263Q139 212 159 172T216 109T299 85Z" />
<glyph unicode="r" glyph-name="r" horiz-adv-x="403" d="M366 414Q356 419 342 422T311 426Q279 426 248 410T197 363T176 290V0H72V525H176V426Q198 474 242 505T336 536Q373 536 393 526L366 414Z" />
<glyph unicode="s" glyph-name="s" horiz-adv-x="479" d="M375 387Q347 415 312 433T246 451Q225 451 205 446T170 428T156 388Q157 352 188 337T267 310Q308 299 347 283T411 235T437 146Q437 97 410 62T339 9T247 -10Q190 -10 135 10T40 81L110 141Q137 110
171 93T256 75Q275 75 294 81T326 102T340 142Q340 166 326 179T287 201T234 217Q191 229 150 246T81 296T53 385Q53 432 79 465T149 517T241 536Q288 536 343 516T434 452L375 387Z" />
<glyph unicode="t" glyph-name="t" horiz-adv-x="384" d="M240 0H137V425H28V525H137V659H240V525H362V425H240V0Z" />
<glyph unicode="u" glyph-name="u" horiz-adv-x="605" d="M430 209V525H533V0H430V84Q407 47 363 19T256 -10Q174 -10 123 46T72 201V525H175V229Q175 189 187 155T227 101T298 80Q352 80 391 114T430 209Z" />
<glyph unicode="v" glyph-name="v" horiz-adv-x="573" d="M133 525L286 150L445 525H551L318 0H244L22 525H133Z" />
<glyph unicode="w" glyph-name="w" horiz-adv-x="800" d="M778 525L601 0H530L396 305L271 0H201L22 525L126 526L244 164L370 442H432L557 168L674 525H778Z" />
<glyph unicode="x" glyph-name="x" horiz-adv-x="562" d="M16 0L218 263L15 525H145L287 340L407 525H529L343 266L547 0H421L277 187L137 -1L16 0Z" />
<glyph unicode="y" glyph-name="y" horiz-adv-x="581" d="M160 -230L246 -33L249 -26L5 525H125L289 139Q292 133 295 124T302 104Q306 115 309 125T317 146L454 525H576L360 0L271 -230H160Z" />
<glyph unicode="z" glyph-name="z" horiz-adv-x="484" d="M439 89V0H50V86L312 436H50V525H433V441L170 89H439Z" />
<glyph unicode="{" glyph-name="braceleft" horiz-adv-x="411" d="M369 -200Q294 -185 254 -158T199 -93T184 -7L185 88Q185 146 160 178T87 212H44V288H89Q137 290 161 322T185 412L184 507Q184 587 226 632T369 700L387 631Q339 616 315 598T283 555T275 493L277
398Q277 338 250 301T178 250Q225 234 251 197T277 102L275 7Q275 -29 283 -54T315 -96T387 -131L369 -200Z" />
<glyph unicode="|" glyph-name="bar" horiz-adv-x="231" d="M164 -193H67V740H164V-193Z" />
<glyph unicode="}" glyph-name="braceright" horiz-adv-x="411" d="M42 700Q117 685 157 658T212 593T227 507L226 412Q226 354 251 322T324 288H367V212H322Q274 210 250 178T226 88L227 -7Q227 -87 185 -132T42 -200L24 -131Q72 -116 96 -98T128 -55T136 7L134
102Q134 162 161 199T233 250Q186 266 160 303T134 398L136 493Q136 529 128 554T96 596T24 631L42 700Z" />
<glyph unicode="~" glyph-name="asciitilde" horiz-adv-x="510" d="M356 225Q336 225 308 234T249 255T192 276T151 285Q135 285 125 271T114 227H40Q40 290 69 329T162 369Q183 369 210 360T267 339T321 318T361 309Q378 309 388 322T396 357L470 354Q470 296
444 261T356 225Z" />
<glyph unicode="&#xa0;" glyph-name="uni00A0" horiz-adv-x="280" />
<glyph unicode="&#xa1;" glyph-name="exclamdown" horiz-adv-x="236" d="M141 289Q147 234 152 169T161 34T165 -100V-170H57V-100Q57 -35 60 34T68 168T81 289H141ZM114 541Q149 541 166 521T183 466Q183 437 166 414T114 391Q79 391 62 411T45 466Q45 494 62
517T114 541Z" />
<glyph unicode="&#xa2;" glyph-name="cent" horiz-adv-x="535" d="M336 0H239V84Q181 97 136 134T66 228T40 351Q40 418 65 474T136 567T239 618V700H336V621Q395 614 440 586T510 518L453 448Q433 477 399 499T329 529V173Q370 179 401 202T453 251L510 181Q485
146 439 118T336 81V0ZM138 351Q138 291 169 247T246 183V520Q198 502 168 457T138 351Z" />
<glyph unicode="&#xa3;" glyph-name="sterling" horiz-adv-x="610" d="M44 323V408H126Q121 428 118 447T114 487Q114 553 141 603T219 681T340 710Q415 710 462 685T529 625L455 569Q433 592 405 604T340 617Q280 617 247 578T214 486Q214 468 218 448T227 408H452V323H255Q263
297 269 272T275 224Q275 191 266 164T244 113Q275 110 307 99T368 77T425 67Q461 67 490 78T538 102L590 37Q559 9 516 -6T425 -21Q403 -21 375 -14T316 3T260 19T214 26Q173 26 134 15T70 -6L30 65Q55 81 86 92T153 109Q162 126 168 149T175 201Q175 233 169
263T152 323H44Z" />
<glyph unicode="&#xa4;" glyph-name="currency" horiz-adv-x="550" d="M279 122Q231 122 190 146L129 82L58 152L121 219Q101 258 101 302Q101 346 121 385L50 451L120 521L188 457Q230 482 279 482Q324 482 364 460L429 530L500 460L434 390Q457 349 457 302Q457
257 436 218L498 160L428 90L368 146Q327 122 279 122ZM279 210Q317 210 339 236T362 302Q362 340 340 367T279 395Q242 395 220 368T197 302Q197 263 219 237T279 210Z" />
<glyph unicode="&#xa5;" glyph-name="yen" horiz-adv-x="660" d="M146 90V176L286 175V229L146 230V316L282 315L10 700H140L342 410L526 700H650L396 315L558 314V228L394 229V175L558 174V88L394 89V0H286V89L146 90Z" />
<glyph unicode="&#xa6;" glyph-name="brokenbar" horiz-adv-x="239" d="M168 341H71V740H168V341ZM168 -202H71V198H168V-202Z" />
<glyph unicode="&#xa7;" glyph-name="section" horiz-adv-x="549" d="M513 278Q507 187 423 152Q451 131 464 105T478 41Q478 -38 424 -89T274 -140Q212 -140 152 -114T55 -50L105 29Q124 11 150 -7T208 -37T273 -49Q297 -49 321 -43T363 -22T380 23Q380 47 358
64T297 95T209 120Q130 140 89 180T47 284Q47 302 54 328T81 381T139 423Q115 444 105 470T94 526Q94 574 113 609T162 666T227 700T295 711Q356 711 400 689T476 628L419 562Q394 588 363 602T294 617Q252 617 222 598T192 541Q192 518 206 502T243 474T289 455T332
444Q424 424 470 384T513 278ZM235 219L330 197H340Q373 199 394 218T415 266Q415 291 398 306T349 332L240 359Q236 360 232 360T224 361Q197 361 176 344T154 294Q154 275 170 256T235 219Z" />
<glyph unicode="&#xa8;" glyph-name="dieresis" horiz-adv-x="413" d="M106 591Q71 591 54 609T37 656Q37 681 54 701T106 721Q141 721 158 703T175 656Q175 631 158 611T106 591ZM306 591Q271 591 254 609T237 656Q237 681 254 701T306 721Q341 721 358 703T375
656Q375 631 358 611T306 591Z" />
<glyph unicode="&#xa9;" glyph-name="copyright" horiz-adv-x="786" d="M393 -7Q319 -7 255 20T141 96T64 210T36 350Q36 425 64 490T141 603T254 679T393 707Q467 707 531 680T645 604T722 490T750 350Q750 275 722 210T645 97T532 21T393 -7ZM393 67Q452 67
503 88T593 148T654 238T676 350Q676 410 654 461T593 551T503 611T393 633Q335 633 284 612T193 552T132 462T110 350Q110 290 132 239T193 149T283 89T393 67ZM411 142Q355 142 306 167T227 240T197 350Q197 407 225 454T302 529T411 557Q446 557 479 545T540
512L503 437Q483 452 460 464T411 476Q374 476 345 459T300 414T283 350Q283 292 321 258T411 223Q437 223 461 233T507 261L544 185Q513 163 480 153T411 142Z" />
<glyph unicode="&#xaa;" glyph-name="ordfeminine" horiz-adv-x="365" d="M143 391Q100 391 72 414T29 477T15 562Q15 606 32 642T80 699T155 721Q217 721 242 669V715H335V401H242V457Q228 430 203 411T143 391ZM172 458Q203 458 224 483T246 555Q246 601 226
627T171 654Q145 654 127 627T108 562Q108 519 123 489T172 458Z" />
<glyph unicode="&#xab;" glyph-name="guillemotleft" horiz-adv-x="481" d="M444 95L381 50L221 258L380 471L443 426L328 261L444 95ZM218 262L221 258L218 254V262ZM487 95L424 50L264 258L423 471L486 426L371 261L487 95ZM261 262L264 258L261 254V262Z" />
<glyph unicode="&#xac;" glyph-name="logicalnot" horiz-adv-x="670" d="M515 117V307H50V404H620V117H515Z" />
<glyph unicode="&#xad;" glyph-name="uni00AD" horiz-adv-x="394" d="M53 235V337H341V235H53Z" />
<glyph unicode="&#xae;" glyph-name="registered" horiz-adv-x="507" d="M259 259Q196 259 144 289T60 370T29 484Q29 547 60 598T143 679T259 709Q322 709 374 679T457 598T488 484Q488 421 457 370T374 289T259 259ZM259 322Q305 322 342 343T402 402T425 484Q425
530 403 566T343 625T259 647Q213 647 175 625T114 567T91 484Q91 439 114 402T175 344T259 322ZM292 367L257 461H229V367H172V606H282Q314 606 335 587T356 534Q356 508 344 492T313 467L352 367H292ZM262 502Q279 502 290 509T301 529Q301 543 291 549T264 556H229V502H262Z"
/>
<glyph unicode="&#xaf;" glyph-name="overscore" horiz-adv-x="424" d="M70 590V665H354V590H70Z" />
<glyph unicode="&#xb0;" glyph-name="degree" horiz-adv-x="532" d="M266 399Q221 399 186 420T130 476T110 553Q110 596 130 631T185 688T266 709Q312 709 347 688T402 632T422 554Q422 512 402 477T347 420T266 399ZM266 466Q301 466 324 493T347 554Q347 589
324 615T266 641Q230 641 208 615T185 553Q185 519 207 493T266 466Z" />
<glyph unicode="&#xb1;" glyph-name="plusminus" horiz-adv-x="582" d="M240 143V285H50V375H240V534H344V375H532V285H344V143H240ZM50 -1V91H532V-1H50Z" />
<glyph unicode="&#xb2;" glyph-name="uni00B2" horiz-adv-x="346" d="M65 418L56 489L133 566Q158 592 183 617T209 667Q209 686 198 696T169 707Q153 707 135 694T94 656L42 693Q60 723 95 751T176 779Q217 779 243 763T281 721T293 669Q293 645 278 622T243
578T205 541L147 485H296V418H65Z" />
<glyph unicode="&#xb3;" glyph-name="uni00B3" horiz-adv-x="342" d="M165 412Q136 412 107 421T57 446L90 501Q112 488 128 483T159 478Q183 478 202 491T222 532Q222 553 206 565T165 577Q150 577 136 573T109 565L88 622L183 704H79V772H265L272 706L190 638Q243
637 270 607T297 533Q297 494 278 467T229 426T165 412Z" />
<glyph unicode="&#xb4;" glyph-name="acute" horiz-adv-x="269" d="M72 573L38 624L181 749L246 667L72 573Z" />
<glyph unicode="&#xb5;" glyph-name="uni00B5" d="M516 525V0H419V84Q411 68 391 46T340 7T269 -10Q247 -10 220 1T177 35V-157H81L80 525H177V222Q177 183 186 151T219 99T284 80Q324 80 354 99T401 151T419 222V525H516Z" />
<glyph unicode="&#xb6;" glyph-name="paragraph" horiz-adv-x="712" d="M506 0V596H354V0H246V279H236Q184 279 141 305T73 377T48 486Q48 553 77 601T157 674T273 700H614V0H506Z" />
<glyph unicode="&#xb7;" glyph-name="middot" horiz-adv-x="228" d="M114 253Q79 253 62 273T45 328Q45 357 62 380T114 403Q149 403 166 383T183 328Q183 300 166 277T114 253Z" />
<glyph unicode="&#xb8;" glyph-name="cedilla" horiz-adv-x="267" d="M230 -139Q230 -159 210 -185T148 -228T40 -244L33 -191Q55 -191 81 -184T126 -164T145 -138Q145 -127 122 -114T55 -100L43 -91L42 -90L114 24H173L131 -46Q169 -55 199 -76T230 -139Z" />
<glyph unicode="&#xb9;" glyph-name="uni00B9" horiz-adv-x="281" d="M201 429H126V681L82 653L47 719L145 777H201V429Z" />
<glyph unicode="&#xba;" glyph-name="ordmasculine" horiz-adv-x="354" d="M334 549Q334 504 314 469T257 413T176 392Q131 392 96 412T41 468T20 549Q20 595 40 631T96 688T176 710Q221 710 257 689T313 631T334 549ZM245 549Q245 588 227 613T176 639Q145 639
127 614T108 549Q108 512 126 488T176 463Q208 463 226 487T245 549Z" />
<glyph unicode="&#xbb;" glyph-name="guillemotright" horiz-adv-x="497" d="M264 426L327 471L487 263L328 50L265 95L380 260L264 426ZM490 259L487 263L490 267V259ZM48 426L111 471L271 263L112 50L49 95L164 260L48 426ZM274 259L271 263L274 267V259Z" />
<glyph unicode="&#xbc;" glyph-name="onequarter" horiz-adv-x="793" d="M208 359H133V611L89 583L54 649L152 707H208V359ZM111 0L332 335L574 700H677L414 307L209 0H111ZM615 -2V81H473L456 150L624 356H690V149H751V81H690V-2H615ZM537 149H615V239L537 149Z" />
<glyph unicode="&#xbd;" glyph-name="onehalf" horiz-adv-x="803" d="M208 359H133V611L89 583L54 649L152 707H208V359ZM113 0L334 335L576 700H679L416 307L211 0H113ZM522 0L513 71L590 148Q615 174 640 199T666 249Q666 268 655 278T626 289Q610 289 592 276T551
238L499 275Q517 305 552 333T633 361Q674 361 700 345T738 303T750 251Q750 227 735 204T700 160T662 123L604 67H753V0H522Z" />
<glyph unicode="&#xbe;" glyph-name="threequarters" horiz-adv-x="791" d="M384 342Q355 342 326 351T276 376L309 431Q331 418 347 413T378 408Q402 408 421 421T441 462Q441 483 425 495T384 507Q369 507 355 503T328 495L307 552L402 634H298V702H484L491
636L409 568Q462 567 489 537T516 463Q516 424 497 397T448 356T384 342ZM121 0L342 335L584 700H687L424 307L219 0H121ZM613 -2V81H471L454 150L622 356H688V149H749V81H688V-2H613ZM535 149H613V239L535 149Z" />
<glyph unicode="&#xbf;" glyph-name="questiondown" horiz-adv-x="511" d="M326 182Q233 157 184 119T135 23Q135 -21 169 -49T254 -78Q296 -78 333 -50T396 27L471 -36Q430 -100 371 -137T244 -175Q182 -175 132 -150T52 -79T22 23Q22 72 48 113T116 185T206
233L223 323H300L326 182ZM266 545Q301 545 318 525T335 470Q335 441 318 418T266 395Q231 395 214 415T197 470Q197 498 214 521T266 545Z" />
<glyph unicode="&#xc0;" glyph-name="Agrave" horiz-adv-x="700" d="M560 0L494 174H201L135 0H25L296 700H406L675 0H560ZM294 418L241 278H455L400 422Q387 457 374 497T348 579Q334 537 321 495T294 418ZM386 754L212 848L277 930L420 805L386 754Z" />
<glyph unicode="&#xc1;" glyph-name="Aacute" horiz-adv-x="700" d="M560 0L494 174H201L135 0H25L296 700H406L675 0H560ZM294 418L241 278H455L400 422Q387 457 374 497T348 579Q334 537 321 495T294 418ZM326 750L292 801L435 926L500 844L326 750Z" />
<glyph unicode="&#xc2;" glyph-name="Acircumflex" horiz-adv-x="700" d="M560 0L494 174H201L135 0H25L296 700H406L675 0H560ZM294 418L241 278H455L400 422Q387 457 374 497T348 579Q334 537 321 495T294 418ZM507 783L470 748L352 815L233 748L196 783L315
894H388L507 783Z" />
<glyph unicode="&#xc3;" glyph-name="Atilde" horiz-adv-x="700" d="M560 0L494 174H201L135 0H25L296 700H406L675 0H560ZM294 418L241 278H455L400 422Q387 457 374 497T348 579Q334 537 321 495T294 418ZM182 816Q182 871 212 900T288 929Q314 929 338 919T385
899T424 889Q436 889 443 899T449 929H525Q525 884 501 850T433 815Q405 815 377 825T326 845T286 855Q275 855 267 845T259 816H182Z" />
<glyph unicode="&#xc4;" glyph-name="Adieresis" horiz-adv-x="700" d="M560 0L494 174H201L135 0H25L296 700H406L675 0H560ZM294 418L241 278H455L400 422Q387 457 374 497T348 579Q334 537 321 495T294 418ZM251 749Q216 749 199 767T182 814Q182 839 199 859T251
879Q286 879 303 861T320 814Q320 789 303 769T251 749ZM457 749Q422 749 405 767T388 814Q388 839 405 859T457 879Q492 879 509 861T526 814Q526 789 509 769T457 749Z" />
<glyph unicode="&#xc5;" glyph-name="Aring" horiz-adv-x="700" d="M560 0L494 174H201L135 0H25L279 656Q257 672 244 695T231 746Q231 779 248 805T292 846T351 862Q383 862 410 847T453 805T470 746Q470 719 457 696T423 656L675 0H560ZM351 700Q371 700 385
713T400 746Q400 769 385 781T351 793Q330 793 316 780T302 746Q302 727 316 714T351 700ZM294 418L241 278H455L400 422Q387 457 374 497T348 579Q334 537 321 495T294 418Z" />
<glyph unicode="&#xc6;" glyph-name="AE" horiz-adv-x="969" d="M465 0V153H219L114 0H5L493 700H894V607H566V402H849V308H566V93H894V0H465ZM282 245H465V513L282 245Z" />
<glyph unicode="&#xc7;" glyph-name="Ccedilla" horiz-adv-x="679" d="M630 86Q609 62 572 40T486 4T382 -10Q288 -10 213 34T93 160T48 350Q48 427 75 492T150 605T260 679T391 706Q448 706 497 689T584 644T643 585L571 510Q534 548 489 573T391 598Q331 598
278 568T191 483T158 350Q158 266 191 210T280 127T400 99Q459 99 504 122T576 174L630 86ZM477 -139Q477 -159 457 -185T395 -228T287 -244L280 -191Q302 -191 328 -184T373 -164T392 -138Q392 -127 369 -114T302 -100L290 -91L289 -90L361 24H420L378 -46Q416
-55 446 -76T477 -139Z" />
<glyph unicode="&#xc8;" glyph-name="Egrave" horiz-adv-x="614" d="M98 700H539V596H206V411H484V307H206V104H539V0H98V700ZM351 754L177 848L242 930L385 805L351 754Z" />
<glyph unicode="&#xc9;" glyph-name="Eacute" horiz-adv-x="614" d="M98 700H539V596H206V411H484V307H206V104H539V0H98V700ZM291 750L257 801L400 926L465 844L291 750Z" />
<glyph unicode="&#xca;" glyph-name="Ecircumflex" horiz-adv-x="614" d="M98 700H539V596H206V411H484V307H206V104H539V0H98V700ZM472 783L435 748L317 815L198 748L161 783L280 894H353L472 783Z" />
<glyph unicode="&#xcb;" glyph-name="Edieresis" horiz-adv-x="614" d="M98 700H539V596H206V411H484V307H206V104H539V0H98V700ZM216 749Q181 749 164 767T147 814Q147 839 164 859T216 879Q251 879 268 861T285 814Q285 789 268 769T216 749ZM422 749Q387 749
370 767T353 814Q353 839 370 859T422 879Q457 879 474 861T491 814Q491 789 474 769T422 749Z" />
<glyph unicode="&#xcc;" glyph-name="Igrave" horiz-adv-x="478" d="M406 0H72V100H185V600H72V700H406V600H293V100H406V0ZM272 754L98 848L163 930L306 805L272 754Z" />
<glyph unicode="&#xcd;" glyph-name="Iacute" horiz-adv-x="478" d="M406 0H72V100H185V600H72V700H406V600H293V100H406V0ZM212 750L178 801L321 926L386 844L212 750Z" />
<glyph unicode="&#xce;" glyph-name="Icircumflex" horiz-adv-x="478" d="M406 0H72V100H185V600H72V700H406V600H293V100H406V0ZM393 783L356 748L238 815L119 748L82 783L201 894H274L393 783Z" />
<glyph unicode="&#xcf;" glyph-name="Idieresis" horiz-adv-x="478" d="M406 0H72V100H185V600H72V700H406V600H293V100H406V0ZM137 749Q102 749 85 767T68 814Q68 839 85 859T137 879Q172 879 189 861T206 814Q206 789 189 769T137 749ZM343 749Q308 749 291
767T274 814Q274 839 291 859T343 879Q378 879 395 861T412 814Q412 789 395 769T343 749Z" />
<glyph unicode="&#xd0;" glyph-name="Eth" horiz-adv-x="748" d="M372 700Q453 700 514 673T617 597T679 485T700 350Q700 254 663 175T553 48T372 0H98V700H372ZM367 104Q446 104 495 137T567 227T590 350Q590 416 567 472T495 562T367 596H206V104H367ZM276
307V397H544V307H276Z" />
<glyph unicode="&#xd1;" glyph-name="Ntilde" horiz-adv-x="793" d="M587 700H695V0H596L189 534Q195 473 200 413T206 291V0H98V700H195L602 155Q593 228 590 312T587 470V700ZM223 816Q223 871 253 900T329 929Q355 929 379 919T426 899T465 889Q477 889 484
899T490 929H566Q566 884 542 850T474 815Q446 815 418 825T367 845T327 855Q316 855 308 845T300 816H223Z" />
<glyph unicode="&#xd2;" glyph-name="Ograve" horiz-adv-x="782" d="M734 350Q734 274 709 209T638 94T529 18T391 -10Q316 -10 253 17T144 94T73 208T48 350Q48 426 73 491T144 606T253 682T391 710Q466 710 528 683T637 606T709 492T734 350ZM624 350Q624 423
594 480T512 571T391 605Q322 605 270 572T188 481T158 350Q158 277 187 220T269 129T391 95Q459 95 511 128T594 220T624 350ZM420 754L246 848L311 930L454 805L420 754Z" />
<glyph unicode="&#xd3;" glyph-name="Oacute" horiz-adv-x="782" d="M734 350Q734 274 709 209T638 94T529 18T391 -10Q316 -10 253 17T144 94T73 208T48 350Q48 426 73 491T144 606T253 682T391 710Q466 710 528 683T637 606T709 492T734 350ZM624 350Q624 423
594 480T512 571T391 605Q322 605 270 572T188 481T158 350Q158 277 187 220T269 129T391 95Q459 95 511 128T594 220T624 350ZM360 750L326 801L469 926L534 844L360 750Z" />
<glyph unicode="&#xd4;" glyph-name="Ocircumflex" horiz-adv-x="782" d="M734 350Q734 274 709 209T638 94T529 18T391 -10Q316 -10 253 17T144 94T73 208T48 350Q48 426 73 491T144 606T253 682T391 710Q466 710 528 683T637 606T709 492T734 350ZM624 350Q624
423 594 480T512 571T391 605Q322 605 270 572T188 481T158 350Q158 277 187 220T269 129T391 95Q459 95 511 128T594 220T624 350ZM541 783L504 748L386 815L267 748L230 783L349 894H422L541 783Z" />
<glyph unicode="&#xd5;" glyph-name="Otilde" horiz-adv-x="782" d="M734 350Q734 274 709 209T638 94T529 18T391 -10Q316 -10 253 17T144 94T73 208T48 350Q48 426 73 491T144 606T253 682T391 710Q466 710 528 683T637 606T709 492T734 350ZM624 350Q624 423
594 480T512 571T391 605Q322 605 270 572T188 481T158 350Q158 277 187 220T269 129T391 95Q459 95 511 128T594 220T624 350ZM216 816Q216 871 246 900T322 929Q348 929 372 919T419 899T458 889Q470 889 477 899T483 929H559Q559 884 535 850T467 815Q439 815
411 825T360 845T320 855Q309 855 301 845T293 816H216Z" />
<glyph unicode="&#xd6;" glyph-name="Odieresis" horiz-adv-x="782" d="M734 350Q734 274 709 209T638 94T529 18T391 -10Q316 -10 253 17T144 94T73 208T48 350Q48 426 73 491T144 606T253 682T391 710Q466 710 528 683T637 606T709 492T734 350ZM624 350Q624
423 594 480T512 571T391 605Q322 605 270 572T188 481T158 350Q158 277 187 220T269 129T391 95Q459 95 511 128T594 220T624 350ZM285 749Q250 749 233 767T216 814Q216 839 233 859T285 879Q320 879 337 861T354 814Q354 789 337 769T285 749ZM491 749Q456 749
439 767T422 814Q422 839 439 859T491 879Q526 879 543 861T560 814Q560 789 543 769T491 749Z" />
<glyph unicode="&#xd7;" glyph-name="multiply" horiz-adv-x="484" d="M39 136L182 280L35 426L99 486L244 342L387 486L447 422L306 280L449 137L385 78L244 218L98 71L39 136Z" />
<glyph unicode="&#xd8;" glyph-name="Oslash" horiz-adv-x="770" d="M40 20L122 121Q87 167 68 225T49 350Q49 426 74 491T145 606T254 682T392 710Q441 710 485 698T566 664L629 741L697 694L631 614Q680 565 707 497T735 350Q735 274 710 209T639 94T530 18T392
-10Q330 -10 277 9T180 62L103 -33L40 20ZM159 350Q159 271 194 209L497 580Q449 605 392 605Q323 605 271 572T189 481T159 350ZM625 350Q625 403 609 449T562 529L248 145Q277 121 313 108T392 95Q460 95 512 128T595 220T625 350Z" />
<glyph unicode="&#xd9;" glyph-name="Ugrave" horiz-adv-x="740" d="M652 701V269Q652 190 616 128T516 30T370 -6Q289 -6 225 29T125 127T88 269V701H196V278Q196 226 220 185T285 121T370 98Q418 98 459 121T524 185T549 278V701H652ZM404 754L230 848L295 930L438
805L404 754Z" />
<glyph unicode="&#xda;" glyph-name="Uacute" horiz-adv-x="740" d="M652 701V269Q652 190 616 128T516 30T370 -6Q289 -6 225 29T125 127T88 269V701H196V278Q196 226 220 185T285 121T370 98Q418 98 459 121T524 185T549 278V701H652ZM344 750L310 801L453 926L518
844L344 750Z" />
<glyph unicode="&#xdb;" glyph-name="Ucircumflex" horiz-adv-x="740" d="M652 701V269Q652 190 616 128T516 30T370 -6Q289 -6 225 29T125 127T88 269V701H196V278Q196 226 220 185T285 121T370 98Q418 98 459 121T524 185T549 278V701H652ZM525 783L488 748L370
815L251 748L214 783L333 894H406L525 783Z" />
<glyph unicode="&#xdc;" glyph-name="Udieresis" horiz-adv-x="740" d="M652 701V269Q652 190 616 128T516 30T370 -6Q289 -6 225 29T125 127T88 269V701H196V278Q196 226 220 185T285 121T370 98Q418 98 459 121T524 185T549 278V701H652ZM269 749Q234 749 217
767T200 814Q200 839 217 859T269 879Q304 879 321 861T338 814Q338 789 321 769T269 749ZM475 749Q440 749 423 767T406 814Q406 839 423 859T475 879Q510 879 527 861T544 814Q544 789 527 769T475 749Z" />
<glyph unicode="&#xdd;" glyph-name="Yacute" horiz-adv-x="660" d="M650 700L394 312V0H286V310L10 700H140L342 410L526 700H650ZM305 750L271 801L414 926L479 844L305 750Z" />
<glyph unicode="&#xde;" glyph-name="Thorn" horiz-adv-x="634" d="M206 700V573H383Q439 573 486 545T561 468T589 358Q589 298 561 249T486 170T383 141H206V0H98V700H206ZM381 469H206V245H381Q408 245 430 260T465 301T479 358Q479 405 450 437T381 469Z" />
<glyph unicode="&#xdf;" glyph-name="germandbls" horiz-adv-x="664" d="M129 0V404H45V497H129V499Q129 565 155 618T231 702T354 734Q419 734 463 713T530 655T553 574Q553 529 523 494T453 441Q496 426 534 394T597 314T622 203Q622 144 597 96T526 19T422
-10Q367 -10 333 9T275 57L327 112Q349 93 372 81T424 68Q459 68 481 85T514 131T525 189Q525 274 478 319T344 385V450Q404 476 430 505T457 565Q457 602 429 623T350 644Q289 644 258 603T226 502V0H129Z" />
<glyph unicode="&#xe0;" glyph-name="agrave" horiz-adv-x="633" d="M561 525V0H457V81Q433 48 386 19T277 -10Q211 -10 157 25T70 122T38 264Q38 344 71 405T162 501T294 536Q349 536 390 512T457 456V525H561ZM301 85Q349 85 385 108T441 172T461 264Q461 314
441 354T385 417T301 441Q255 441 219 418T163 355T143 264Q143 213 163 173T219 109T301 85ZM333 633L159 727L224 809L367 684L333 633Z" />
<glyph unicode="&#xe1;" glyph-name="aacute" horiz-adv-x="633" d="M561 525V0H457V81Q433 48 386 19T277 -10Q211 -10 157 25T70 122T38 264Q38 344 71 405T162 501T294 536Q349 536 390 512T457 456V525H561ZM301 85Q349 85 385 108T441 172T461 264Q461 314
441 354T385 417T301 441Q255 441 219 418T163 355T143 264Q143 213 163 173T219 109T301 85ZM290 631L256 682L399 807L464 725L290 631Z" />
<glyph unicode="&#xe2;" glyph-name="acircumflex" horiz-adv-x="633" d="M561 525V0H457V81Q433 48 386 19T277 -10Q211 -10 157 25T70 122T38 264Q38 344 71 405T162 501T294 536Q349 536 390 512T457 456V525H561ZM301 85Q349 85 385 108T441 172T461 264Q461
314 441 354T385 417T301 441Q255 441 219 418T163 355T143 264Q143 213 163 173T219 109T301 85ZM468 666L430 633L310 698L190 633L152 666L267 779H353L468 666Z" />
<glyph unicode="&#xe3;" glyph-name="atilde" horiz-adv-x="633" d="M561 525V0H457V81Q433 48 386 19T277 -10Q211 -10 157 25T70 122T38 264Q38 344 71 405T162 501T294 536Q349 536 390 512T457 456V525H561ZM301 85Q349 85 385 108T441 172T461 264Q461 314
441 354T385 417T301 441Q255 441 219 418T163 355T143 264Q143 213 163 173T219 109T301 85ZM144 644Q146 693 175 729T254 765Q277 765 293 756T320 734T342 713T364 703Q375 703 384 716T392 753L465 737Q464 713 452 689T418 648T364 631Q338 631 321 640T291
661T270 683T252 692Q236 692 227 679T217 634L144 644Z" />
<glyph unicode="&#xe4;" glyph-name="adieresis" horiz-adv-x="633" d="M561 525V0H457V81Q433 48 386 19T277 -10Q211 -10 157 25T70 122T38 264Q38 344 71 405T162 501T294 536Q349 536 390 512T457 456V525H561ZM301 85Q349 85 385 108T441 172T461 264Q461
314 441 354T385 417T301 441Q255 441 219 418T163 355T143 264Q143 213 163 173T219 109T301 85ZM459 641Q424 641 407 659T390 706Q390 731 407 751T459 771Q494 771 511 753T528 706Q528 681 511 661T459 641ZM659 641Q624 641 607 659T590 706Q590 731 607
751T659 771Q694 771 711 753T728 706Q728 681 711 661T659 641Z" />
<glyph unicode="&#xe5;" glyph-name="aring" horiz-adv-x="633" d="M561 525V0H457V81Q433 48 386 19T277 -10Q211 -10 157 25T70 122T38 264Q38 344 71 405T162 501T294 536Q349 536 390 512T457 456V525H561ZM301 85Q349 85 385 108T441 172T461 264Q461 314
441 354T385 417T301 441Q255 441 219 418T163 355T143 264Q143 213 163 173T219 109T301 85ZM308 604Q280 604 255 618T215 657T199 709Q199 739 214 763T255 801T308 815Q337 815 362 801T402 763T418 709Q418 681 403 657T362 619T308 604ZM308 663Q329 663
343 676T358 709Q358 732 343 744T308 756Q288 756 274 743T259 709Q259 690 273 677T308 663Z" />
<glyph unicode="&#xe6;" glyph-name="ae" horiz-adv-x="899" d="M264 536Q317 536 369 520T447 460Q482 497 527 516T621 536Q687 536 741 504T827 414T859 281L858 237H468Q474 189 501 155T569 102T654 84Q709 84 743 104T799 144L850 69H849Q817 38 761 14T644
-10Q570 -10 513 18T421 95Q404 73 375 49T306 7T216 -10Q174 -10 133 7T65 59T38 149Q38 227 94 273T274 319H373V356Q373 386 355 404T311 432T262 441Q210 441 176 420T118 368L51 435Q72 459 102 482T172 520T264 536ZM621 441Q569 441 527 415T471 319H754V326Q751
360 732 386T683 426T621 441ZM220 78Q265 78 298 94T353 131T385 172Q376 203 374 237H261Q191 237 163 212T135 151Q135 113 162 96T220 78Z" />
<glyph unicode="&#xe7;" glyph-name="ccedilla" horiz-adv-x="535" d="M138 263Q138 211 161 171T223 107T306 83Q356 83 393 109T453 163L510 93Q491 66 458 43T383 5T295 -10Q223 -10 165 26T74 124T40 263Q40 341 73 402T165 500T295 536Q368 536 425 507T510
430L453 360Q430 394 388 418T305 443Q258 443 220 420T160 356T138 263ZM369 -139Q369 -159 349 -185T287 -228T179 -244L172 -191Q194 -191 220 -184T265 -164T284 -138Q284 -127 261 -114T194 -100L182 -91L181 -90L253 24H312L270 -46Q308 -55 338 -76T369
-139Z" />
<glyph unicode="&#xe8;" glyph-name="egrave" d="M523 69H522Q490 38 434 14T317 -10Q235 -10 173 24T75 119T40 257Q40 345 77 407T175 503T308 537Q374 537 428 505T514 415T546 282L545 238H143Q152 167 201 126T327 84Q382 84 416 104T472 144L523 69ZM308
442Q249 442 205 415T147 320H441V327Q438 361 419 387T370 427T308 442ZM319 633L145 727L210 809L353 684L319 633Z" />
<glyph unicode="&#xe9;" glyph-name="eacute" d="M523 69H522Q490 38 434 14T317 -10Q235 -10 173 24T75 119T40 257Q40 345 77 407T175 503T308 537Q374 537 428 505T514 415T546 282L545 238H143Q152 167 201 126T327 84Q382 84 416 104T472 144L523 69ZM308
442Q249 442 205 415T147 320H441V327Q438 361 419 387T370 427T308 442ZM276 631L242 682L385 807L450 725L276 631Z" />
<glyph unicode="&#xea;" glyph-name="ecircumflex" d="M523 69H522Q490 38 434 14T317 -10Q235 -10 173 24T75 119T40 257Q40 345 77 407T175 503T308 537Q374 537 428 505T514 415T546 282L545 238H143Q152 167 201 126T327 84Q382 84 416 104T472 144L523 69ZM308
442Q249 442 205 415T147 320H441V327Q438 361 419 387T370 427T308 442ZM454 922L416 889L296 954L176 889L138 922L253 1035H339L454 922Z" />
<glyph unicode="&#xeb;" glyph-name="edieresis" d="M523 69H522Q490 38 434 14T317 -10Q235 -10 173 24T75 119T40 257Q40 345 77 407T175 503T308 537Q374 537 428 505T514 415T546 282L545 238H143Q152 167 201 126T327 84Q382 84 416 104T472 144L523 69ZM308
442Q249 442 205 415T147 320H441V327Q438 361 419 387T370 427T308 442ZM445 641Q410 641 393 659T376 706Q376 731 393 751T445 771Q480 771 497 753T514 706Q514 681 497 661T445 641ZM645 641Q610 641 593 659T576 706Q576 731 593 751T645 771Q680 771 697
753T714 706Q714 681 697 661T645 641Z" />
<glyph unicode="&#xec;" glyph-name="igrave" horiz-adv-x="243" d="M175 0H72V525H175V0ZM406 628L232 722L297 804L440 679L406 628Z" />
<glyph unicode="&#xed;" glyph-name="iacute" horiz-adv-x="243" d="M175 0H72V525H175V0ZM107 882L73 933L216 1058L281 976L107 882Z" />
<glyph unicode="&#xee;" glyph-name="icircumflex" horiz-adv-x="243" d="M175 0H72V525H175V0ZM541 917L503 884L383 949L263 884L225 917L340 1030H426L541 917Z" />
<glyph unicode="&#xef;" glyph-name="idieresis" horiz-adv-x="243" d="M175 0H72V525H175V0ZM532 636Q497 636 480 654T463 701Q463 726 480 746T532 766Q567 766 584 748T601 701Q601 676 584 656T532 636ZM732 636Q697 636 680 654T663 701Q663 726 680 746T732
766Q767 766 784 748T801 701Q801 676 784 656T732 636Z" />
<glyph unicode="&#xf0;" glyph-name="eth" horiz-adv-x="574" d="M287 -7Q218 -7 162 29T73 126T40 262Q40 318 59 366T112 451T188 507T275 528Q314 528 345 515T401 480Q382 534 343 572L156 528L143 593L267 625Q225 645 169 662L211 740Q247 731 291 712T376
658L489 683L507 617L434 600Q477 547 505 469T534 281Q534 192 501 127T412 28T287 -7ZM287 89Q329 89 363 112T417 174T437 262Q437 309 417 347T364 409T287 432Q245 432 211 410T157 349T137 262Q137 214 157 175T211 112T287 89Z" />
<glyph unicode="&#xf1;" glyph-name="ntilde" horiz-adv-x="595" d="M347 536Q418 536 457 507T511 429T527 320V0H424V313Q424 351 414 381T380 428T313 442Q273 442 242 425T193 380T175 318V0H72V525H175V442Q199 479 245 507T347 536ZM140 880Q142 929 171
965T250 1001Q273 1001 289 992T316 970T338 949T360 939Q371 939 380 952T388 989L461 973Q460 949 448 925T414 884T360 867Q334 867 317 876T287 897T266 919T248 928Q232 928 223 915T213 870L140 880Z" />
<glyph unicode="&#xf2;" glyph-name="ograve" horiz-adv-x="615" d="M575 263Q575 183 540 122T444 25T308 -10Q233 -10 172 25T76 121T40 263Q40 343 75 404T172 501T308 536Q383 536 443 501T539 405T575 263ZM470 263Q471 316 450 356T391 419T308 442Q262
442 225 420T166 357T145 263Q144 211 165 171T224 107T308 84Q354 84 391 107T449 170T470 263ZM331 616L157 710L222 792L365 667L331 616Z" />
<glyph unicode="&#xf3;" glyph-name="oacute" horiz-adv-x="615" d="M575 263Q575 183 540 122T444 25T308 -10Q233 -10 172 25T76 121T40 263Q40 343 75 404T172 501T308 536Q383 536 443 501T539 405T575 263ZM470 263Q471 316 450 356T391 419T308 442Q262
442 225 420T166 357T145 263Q144 211 165 171T224 107T308 84Q354 84 391 107T449 170T470 263ZM288 614L254 665L397 790L462 708L288 614Z" />
<glyph unicode="&#xf4;" glyph-name="ocircumflex" horiz-adv-x="615" d="M575 263Q575 183 540 122T444 25T308 -10Q233 -10 172 25T76 121T40 263Q40 343 75 404T172 501T308 536Q383 536 443 501T539 405T575 263ZM470 263Q471 316 450 356T391 419T308 442Q262
442 225 420T166 357T145 263Q144 211 165 171T224 107T308 84Q354 84 391 107T449 170T470 263ZM466 905L428 872L308 937L188 872L150 905L265 1018H351L466 905Z" />
<glyph unicode="&#xf5;" glyph-name="otilde" horiz-adv-x="615" d="M575 263Q575 183 540 122T444 25T308 -10Q233 -10 172 25T76 121T40 263Q40 343 75 404T172 501T308 536Q383 536 443 501T539 405T575 263ZM470 263Q471 316 450 356T391 419T308 442Q262
442 225 420T166 357T145 263Q144 211 165 171T224 107T308 84Q354 84 391 107T449 170T470 263ZM142 627Q144 676 173 712T252 748Q275 748 291 739T318 717T340 696T362 686Q373 686 382 699T390 736L463 720Q462 696 450 672T416 631T362 614Q336 614 319 623T289
644T268 666T250 675Q234 675 225 662T215 617L142 627Z" />
<glyph unicode="&#xf6;" glyph-name="odieresis" horiz-adv-x="615" d="M575 263Q575 183 540 122T444 25T308 -10Q233 -10 172 25T76 121T40 263Q40 343 75 404T172 501T308 536Q383 536 443 501T539 405T575 263ZM470 263Q471 316 450 356T391 419T308 442Q262
442 225 420T166 357T145 263Q144 211 165 171T224 107T308 84Q354 84 391 107T449 170T470 263ZM457 624Q422 624 405 642T388 689Q388 714 405 734T457 754Q492 754 509 736T526 689Q526 664 509 644T457 624ZM657 624Q622 624 605 642T588 689Q588 714 605 734T657
754Q692 754 709 736T726 689Q726 664 709 644T657 624Z" />
<glyph unicode="&#xf7;" glyph-name="divide" horiz-adv-x="597" d="M293 372Q266 372 247 391T227 436Q227 464 246 483T293 502Q319 502 338 483T358 436Q358 410 339 391T293 372ZM50 215V305H547V215H50ZM293 15Q266 15 247 34T227 80Q227 107 246 126T293
145Q319 145 338 126T358 80Q358 53 339 34T293 15Z" />
<glyph unicode="&#xf8;" glyph-name="oslash" horiz-adv-x="615" d="M41 13L101 84Q73 119 57 164T40 263Q40 343 75 404T172 501T308 536Q388 536 452 496L494 545L561 496L514 441Q543 406 559 361T575 263Q575 183 540 122T444 25T308 -10Q228 -10 163 30L107
-35L41 13ZM145 263Q144 208 169 164L388 421Q352 442 308 442Q262 442 225 420T166 357T145 263ZM470 263Q471 318 446 362L227 105Q264 84 308 84Q354 84 391 107T449 170T470 263Z" />
<glyph unicode="&#xf9;" glyph-name="ugrave" horiz-adv-x="605" d="M430 209V525H533V0H430V84Q407 47 363 19T256 -10Q174 -10 123 46T72 201V525H175V229Q175 189 187 155T227 101T298 80Q352 80 391 114T430 209ZM325 613L151 707L216 789L359 664L325 613Z" />
<glyph unicode="&#xfa;" glyph-name="uacute" horiz-adv-x="605" d="M430 209V525H533V0H430V84Q407 47 363 19T256 -10Q174 -10 123 46T72 201V525H175V229Q175 189 187 155T227 101T298 80Q352 80 391 114T430 209ZM282 611L248 662L391 787L456 705L282 611Z" />
<glyph unicode="&#xfb;" glyph-name="ucircumflex" horiz-adv-x="605" d="M430 209V525H533V0H430V84Q407 47 363 19T256 -10Q174 -10 123 46T72 201V525H175V229Q175 189 187 155T227 101T298 80Q352 80 391 114T430 209ZM460 902L422 869L302 934L182 869L144
902L259 1015H345L460 902Z" />
<glyph unicode="&#xfc;" glyph-name="udieresis" horiz-adv-x="605" d="M430 209V525H533V0H430V84Q407 47 363 19T256 -10Q174 -10 123 46T72 201V525H175V229Q175 189 187 155T227 101T298 80Q352 80 391 114T430 209ZM451 621Q416 621 399 639T382 686Q382
711 399 731T451 751Q486 751 503 733T520 686Q520 661 503 641T451 621ZM651 621Q616 621 599 639T582 686Q582 711 599 731T651 751Q686 751 703 733T720 686Q720 661 703 641T651 621Z" />
<glyph unicode="&#xfd;" glyph-name="yacute" horiz-adv-x="581" d="M160 -230L246 -33L249 -26L5 525H125L289 139Q292 133 295 124T302 104Q306 115 309 125T317 146L454 525H576L360 0L271 -230H160ZM268 611L234 662L377 787L442 705L268 611Z" />
<glyph unicode="&#xfe;" glyph-name="thorn" horiz-adv-x="631" d="M346 534Q416 534 471 500T559 404T591 263Q591 184 559 123T472 26T349 -9Q293 -9 248 15T176 70V-220H72V740H176V449Q199 482 245 508T346 534ZM332 439Q285 439 249 416T192 354T171 263Q171
213 191 173T248 110T332 86Q379 86 415 109T471 173T492 263Q492 314 472 353T415 416T332 439Z" />
<glyph unicode="&#xff;" glyph-name="ydieresis" horiz-adv-x="581" d="M160 -230L246 -33L249 -26L5 525H125L289 139Q292 133 295 124T302 104Q306 115 309 125T317 146L454 525H576L360 0L271 -230H160ZM437 621Q402 621 385 639T368 686Q368 711 385 731T437
751Q472 751 489 733T506 686Q506 661 489 641T437 621ZM637 621Q602 621 585 639T568 686Q568 711 585 731T637 751Q672 751 689 733T706 686Q706 661 689 641T637 621Z" />
<glyph unicode="&#x2013;" glyph-name="endash" horiz-adv-x="514" d="M53 237V336H461V237H53Z" />
<glyph unicode="&#x2014;" glyph-name="emdash" horiz-adv-x="868" d="M53 237V337H815V237H53Z" />
<glyph unicode="&#x2018;" glyph-name="quoteleft" horiz-adv-x="241" d="M40 572Q40 610 60 643T114 700T183 735L221 689Q182 671 157 648T132 608Q132 594 142 584T166 564T189 542T200 512Q200 487 183 473T139 459Q102 459 71 488T40 572Z" />
<glyph unicode="&#x2019;" glyph-name="quoteright" horiz-adv-x="241" d="M201 615Q201 577 181 544T127 487T58 452L20 498Q59 516 84 539T109 579Q109 593 99 603T75 623T52 645T41 675Q41 700 58 714T102 728Q139 728 170 699T201 615Z" />
<glyph unicode="&#x201a;" glyph-name="quotesinglbase" horiz-adv-x="282" d="M222 4Q222 -38 203 -75T154 -139T89 -179L51 -133Q86 -113 108 -87T130 -42Q130 -27 121 -16T101 6T81 30T72 64Q72 89 90 103T133 117Q167 117 194 88T222 4Z" />
<glyph unicode="&#x201c;" glyph-name="quotedblleft" horiz-adv-x="448" d="M40 823Q40 861 60 894T114 951T183 986L221 940Q182 922 157 899T132 859Q132 845 142 835T166 815T189 793T200 763Q200 738 183 724T139 710Q102 710 71 739T40 823ZM247 567Q247
605 267 638T321 695T390 730L428 684Q389 666 364 643T339 603Q339 589 349 579T373 559T396 537T407 507Q407 482 390 468T346 454Q309 454 278 483T247 567Z" />
<glyph unicode="&#x201d;" glyph-name="quotedblright" horiz-adv-x="448" d="M408 342Q408 304 388 271T334 214T265 179L227 225Q266 243 291 266T316 306Q316 320 306 330T282 350T259 372T248 402Q248 427 265 441T309 455Q346 455 377 426T408 342ZM201 598Q201
560 181 527T127 470T58 435L20 481Q59 499 84 522T109 562Q109 576 99 586T75 606T52 628T41 658Q41 683 58 697T102 711Q139 711 170 682T201 598Z" />
<glyph unicode="&#x201e;" glyph-name="quotedblbase" horiz-adv-x="483" d="M461 4Q461 -38 442 -75T393 -139T328 -179L290 -133Q325 -113 347 -87T369 -42Q369 -27 360 -16T340 6T320 30T311 64Q311 89 329 103T372 117Q406 117 433 88T461 4ZM430 4Q430 -38
411 -75T362 -139T297 -179L259 -133Q294 -113 316 -87T338 -42Q338 -27 329 -16T309 6T289 30T280 64Q280 89 298 103T341 117Q375 117 402 88T430 4Z" />
<glyph unicode="&#x2022;" glyph-name="bullet" horiz-adv-x="346" d="M173 216Q136 216 105 234T56 283T37 351Q37 390 55 421T105 470T173 488Q210 488 241 470T291 421T310 351Q310 314 292 283T242 234T173 216Z" />
<glyph unicode="&#x2039;" glyph-name="guilsinglleft" horiz-adv-x="273" d="M233 95L170 50L10 258L169 471L232 426L117 261L233 95ZM7 262L10 258L7 254V262Z" />
<glyph unicode="&#x203a;" glyph-name="guilsinglright" horiz-adv-x="275" d="M40 426L103 471L263 263L104 50L41 95L156 260L40 426ZM266 259L263 263L266 267V259Z" />
</font>
</defs>
</svg>
